Posts by woprr

    Alte vdr-burn Backup DVDs Umlaute kaputt, hat hier noch wer ne idee?


    Ich hab vor Jahren mal die system locale von de_DE@euro auf de_DE.UTF-8 umgestellt.

    Haben wohl Fachkräftemangel. Ich kenn mich mit dem webserverkrams leider gar nicht aus, sorry.


    ACHTUNG: Neuer server- admin fürs vdr-wiki gesucht!

    Hmmja, RTL SD UMBW:


    Code
    1. Input #0, mpegts, from '/var/lib/video.00/%Die_Bestimmung_-_Insurgent/2018-07-16.00.41.148-0.rec/00001.ts':
    2. Duration: 01:43:49.32, start: 17788.682844, bitrate: 6706 kb/s
    3. Program 132
    4. Stream #0:0[0x20b]: Video: mpeg2video (Main) ([2][0][0][0] / 0x0002), yuv420p(tv), 720x576 [SAR 64:45 DAR 16:9], max. 15000 kb/s, 25 fps, 25 tbr, 90k tbn, 50 tbc
    5. Stream #0:1[0x20c](deu): Audio: mp2 ([3][0][0][0] / 0x0003), 48000 Hz, stereo, s16p, 192 kb/s
    6. Stream #0:2[0x20d](deu): Audio: ac3 ([6][0][0][0] / 0x0006), 48000 Hz, 5.1(side), fltp, 384 kb/s
    7. Stream #0:3[0x60f](deu): Subtitle: dvb_subtitle ([6][0][0][0] / 0x0006) (hearing impaired)
    8. Stream #0:4[0x210]: Unknown: none ([6][0][0][0] / 0x0006)

    UM hier:


    Code
    1. Input #0, mpegts, from '/var/lib/video.00/%Django_Unchained/2018-04-30.02.06.130-0.rec/00001.ts':
    2. Duration: 02:35:17.92, start: 80175.412400, bitrate: 3289 kb/s
    3. Program 132
    4. Stream #0:0[0x121]: Video: mpeg2video (Main) ([2][0][0][0] / 0x0002), yuv420p(tv), 720x576 [SAR 64:45 DAR 16:9], max. 15000 kb/s, 25 fps, 25 tbr, 90k tbn, 50 tbc
    5. Stream #0:1[0x122](deu): Audio: mp2 ([3][0][0][0] / 0x0003), 48000 Hz, stereo, s16p, 192 kb/s
    6. Stream #0:2[0x124](deu): Audio: ac3 ([6][0][0][0] / 0x0006), 48000 Hz, 5.1(side), fltp, 384 kb/s
    7. Stream #0:3[0x21](deu): Subtitle: dvb_teletext ([6][0][0][0] / 0x0006), 492x250

    Wo haben die denn die sourcen für 0.8.6 her? Ist das hier vertrauenswürdig:

    https://github.com/madmartin/noad

    und das

    [PATCH] Noad-0.8.6 mit ffmpeg 3.4

    scheint NOAD aufzuhängen (1 Bugreport).


    Die alte HP http://noad.net23.net/ linkt zu hxxps://www.000webhost.com/


    An markad ist auch schon seit >1 Jahr nichts mehr gemacht worden:

    https://projects.vdr-developer…cts/plg-markad/repository


    Die wiki seiten hab ich mal aktualisiert soweit möglich mit kaputtem recaptcha v1:

    http://www.vdr-wiki.de/wiki/in…p/Markad#Aktuelle_Version

    http://www.vdr-wiki.de/wiki/index.php/Noad#Aktuelle_Version

    Olmimoe schrieb:
    "Change Day"


    Changeday bitte, sonst findet die Suche den Thread nicht.


    Und dazu


    Sendersuchlauf


    Jemand für BW? Ich hab ne dvb-c/s Mischliste, die nützt Euch nix.

    Es wurde die Frequenz des Transponders von 178000 auf 394000 geändert,

    Des service transponders?

    https://git.linuxtv.org/dtv-sc…it/tree/dvb-c/de-Kabel_BW

    Laut

    https://www.unitymedia.de/cont…te%20August_September.pdf aktuell


    Hier fehlen die 114MHz, veraltet:

    https://git.linuxtv.org/dtv-sc…/tree/dvb-c/de-Unitymedia ?


    BW/Hessen wird vielleicht verschoben:

    https://www.unitymediaforum.de/viewtopic.php?f=47&t=35771



    Mann die neue Forumssoftware nervt, ich HASSE UPGRADES!

    Hat schon jemand den Unitymedia Changeday BW am 17.10.17 automatisiert oder müssen wir da wieder mit scan,sort und nano durch?


    vdr-plugin-wirbelscan 0.0.7 ist ja ganz nett aber update existing channels und der Radio und PayTV Filter hat nicht funktioniert,


    musste scan und sort und cat verwenden.

    ...


    Wenn VDR beim Start doppelte Einträge löscht, der erste oder der nachfolgende? EDIT: Der nachfolgende