• Hallo,


    Edit: Gelöst. Siehe unten.


    seit neustem haben meine Aufnahmen keinen Ton mehr.


    Hier mal zwei Beispiele ohne Ton. Einmal von RTL, einmal von ARD HD:


    Code
    1. Input #0, mpegts, from '00001.ts':
    2. Duration: 02:06:59.44, start: 7547.154133, bitrate: 5466 kb/s
    3. Program 132
    4. Stream #0:0[0xa3]: Video: mpeg2video (Main) ([2][0][0][0] / 0x0002), yuv420p(tv, top first), 720x576 [SAR 64:45 DAR 16:9], 25 fps, 25 tbr, 90k tbn, 50 tbc
    5. Stream #0:1[0x68](deu): Audio: mp3 ([3][0][0][0] / 0x0003), 0 channels, s16p
    6. Stream #0:2[0x6a](deu): Audio: ac3 ([6][0][0][0] / 0x0006), 0 channels, fltp
    7. Stream #0:3[0x6e](deu): Subtitle: dvb_subtitle ([6][0][0][0] / 0x0006)


    Jetzt habe ich keine Idee, wo ich ansetzen kann.


    Ich empfange über Astra --> minisatip --> vdr (satip-Plugin)


    Im log von minisatip (syslog) finde ich:

    Code
    1. Sep 30 19:20:40 homeserver dockerd[1592]: time="2018-09-30T19:20:40+02:00" level=info msg="shim reaped" id=555de69b5c16433344237378fdac86f5109effd2057f37603442d9af02675eff
    2. Sep 30 19:20:55 homeserver minisatip[5878]: tuning to 11347000(1597000) pol: v (1) sr:22000000 fec:23 delsys:dvbs2 mod:8psk rolloff:0.35 pilot: , ts clear=330334, ts pol=330334
    3. Sep 30 19:21:16 homeserver minisatip[5878]: tuning to 11376000(1626000) pol: v (1) sr:22000000 fec:23 delsys:dvbs2 mod:8psk rolloff:0.35 pilot: , ts clear=351340, ts pol=351391
    4. Sep 30 19:21:37 homeserver minisatip[5878]: tuning to 11435000(1685000) pol: v (1) sr:22000000 fec:23 delsys:dvbs2 mod:8psk rolloff:0.35 pilot: , ts clear=372412, ts pol=372412


    Damit kann ich nix anfangen...
    Ich merke aber gerade, dass ich auch mit anderen Sat>IP Anwendungen Probleme habe. Da bekomme ich allerdings weder Ton noch Bild...

    Bei den Aufnahmen wo ich kein Audio habe, ist das Bild allerdings absolut ok.


    Edit:

    Gelöst

    Ich hatte minisatip die Parameter

    Code
    1. -f -x 8081 -p http://homeserver:8081/playlist.m3u -F /tmp/minisatip.log

    gegeben.

    Ohne


    Code
    1. -F /tmp/minisatip.log

    funktioniert wieder alles. Verstehe ich aber nicht.



    Gruß,

    Hendrik